Sunday, February 12, 2017

NEW: Springsteen live in Rio de Janeiro 2013 - 2DVD - September 21 - pro-shot

Bruce Springsteen 2013-09-21 Rock In Rio, Rio de Janeiro, Brazil DVD PRO


a very, very LONG show for me, that I am not a fan
I hope you like it

Lineage: cable TV Multishow HD > Philips DVD recorder with Hard Disk > TDK DVD-R > dvddecrypter (0 errors) > my Hard Disk

the cable tv is in HD, but my dvd recorder does not record in HD

the dvds have a standard menu, a chapter every 5 minutes

and remember: THE MASTERS WILL BE THE LAST BAND OF THE LAST DAY OF THE FESTIVAL

complete show in 2 dvd5:


Sociedade Alternativa
(Raul Seixas cover)
Badlands
Death to My Hometown
Spirit in the Night
Hungry Heart
Born in the U.S.A. album
Born in the U.S.A.
Cover Me
Darlington County
Working on the Highway
Downbound Train
I'm on Fire
No Surrender
Bobby Jean
I'm Goin' Down
Glory Days
Dancing in the Dark
(With fans on stage)
My Hometown
Shackled and Drawn
Waitin' on a Sunny Day
The Rising
Land of Hope and Dreams
(The Impressions's People Get Ready Tag)
Thunder Road
Born to Run
Tenth Avenue Freeze-Out
Twist and Shout
(The Top Notes cover) (La Bamba interlude; With fireworks)
Encore:
This Hard Land
(solo acoustic)


General
Complete name : D:\VIDEO_TS\VTS_01_1.VOB
Format : MPEG-PS
File size : 1 024 MiB
Duration : 30mn 0s
Overall bit rate : 4 770 Kbps

Video
ID : 224 (0xE0)
Format : MPEG Video
Format version : Version 2
Format profile : Main@Main
Format settings, BVOP : Yes
Format settings, Matrix : Custom
Format settings, GOP : M=3, N=15
Duration : 30mn 0s
Bit rate : 4 380 Kbps
Width : 720 pixels
Height : 480 pixels
Display aspect ratio : 4:3
Frame rate : 29.970 fps
Standard : NTSC
Color space : YUV
Chroma subsampling : 4:2:0
Bit depth : 8 bits
Scan type : Interlaced
Scan order : Top Field First
Compression mode : Lossy
Bits/(Pixel*Frame) : 0.423
Time code of first frame : 09:43:55;15
Time code source : Group of pictures header
Stream size : 949 MiB (93%)

Audio
ID : 189 (0xBD)-128 (0x80)
Format : AC-3
Format/Info : Audio Coding 3
Mode extension : CM (complete main)
Format settings, Endianness : Big
Muxing mode : DVD-Video
Duration : 30mn 0s
Bit rate mode : Constant
Bit rate : 256 Kbps
Channel(s) : 2 channels
Channel positions : Front: L R
Sampling rate : 48.0 KHz
Bit depth : 16 bits
Compression mode : Lossy
Delay relative to video : -495ms
Stream size : 55.0 MiB (5%)

Download part 1 here
Download part 2 here
Download part 3 here
Download part 4 here
Download part 5 here
Download part 6 here
                 

No comments:

Post a Comment